Скачать порно через торрент Secret desires of Triss Секретные желания Трисса UnionPeer.org бесплатно онлайн HD качество

Скачать новое порно 2015, 2014 новинки через торрент UnionPeer.org

Порно торрент бесплатно ЮнионПир.орг

Статистика раздачи
Размер:  1.95 GB   |    Зарегистрирован:  1 месяц 12 дней   |    .torrent скачан:  1034 раза   |   
Раздают:  1  
   
загрузка...
 
Автор Сообщение

Galfimbul

avatar Galfimbul


Secret desires of Triss / Секретные желания Трисса

Год производства: 2018 г.
Страна: РФ
Жанр: dp, blowjob, hardcore ,creampie
Продолжительность: 00:27:24
Язык: Английский
Доп. информация: 26regionsfm
Pyatigorsk, Russian Federation
Можете поддержать материально создателя видео тут http://www.patreon.com/26regionsfm

Качество видео: WEB-DL
Формат видео: MP4
Видео: MPEG4 Video (H264) 1920x1080 60fps 9966kbps
Аудио: AAC 44100Hz stereo 191kbps
General
Complete name : Secret desires of Triss 10$.mp4
Format : MPEG-4
Format profile : Base Media
Codec ID : isom
File size : 1.95 GiB
Duration : 27mn 23s
Overall bit rate : 10.2 Mbps
Writing application : Lavf55.33.100

Video
ID : 1
Format : AVC
Format/Info : Advanced Video Codec
Format profile : High@L4.1
Format settings, CABAC : Yes
Format settings, ReFrames : 4 frames
Codec ID : avc1
Codec ID/Info : Advanced Video Coding
Duration : 27mn 23s
Bit rate : 10 000 Kbps
Width : 1 920 pixels
Height : 1 080 pixels
Display aspect ratio : 16:9
Frame rate mode : Constant
Frame rate : 60.000 fps
Color space : YUV
Chroma subsampling : 4:2:0
Bit depth : 8 bits
Scan type : Progressive
Bits/(Pixel*Frame) : 0.080
Stream size : 1.91 GiB (98%)
Writing library : x264 core 132
Encoding settings : cabac=1 / ref=1 / deblock=1:0:0 / analyse=0x3:0x113 / me=hex / subme=2 / psy=1 / psy_rd=1.00:0.00 / mixed_ref=0 / me_range=16 / chroma_me=1 / trellis=1 / 8x8dct=1 / cqm=0 / deadzone=21,11 / fast_pskip=1 / chroma_qp_offset=0 / threads=4 / lookahead_threads=1 / sliced_threads=0 / nr=0 / decimate=1 / interlaced=0 / bluray_compat=0 / constrained_intra=0 / bframes=2 / b_pyramid=2 / b_adapt=1 / b_bias=0 / direct=1 / weightb=1 / open_gop=0 / weightp=1 / keyint=25 / keyint_min=13 / scenecut=40 / intra_refresh=0 / rc_lookahead=1 / rc=abr / mbtree=1 / bitrate=10000 / ratetol=0.1 / qcomp=0.60 / qpmin=1 / qpmax=35 / qpstep=2 / ip_ratio=1.40 / aq=1:1.00

Audio
ID : 2
Format : AAC
Format/Info : Advanced Audio Codec
Format profile : LC
Codec ID : 40
Duration : 27mn 23s
Bit rate mode : Constant
Bit rate : 192 Kbps
Channel count : 2 channels
Channel positions : Front: L R
Sampling rate : 44.1 KHz
Compression mode : Lossy
Stream size : 37.6 MiB (2%)


Трекер:  [ 06-Окт-2018 00:10 ]

  

Скачать .torrent

Размер .torrent файла 20 KB


Размер: 1.95 GB
Хэш (hash) релиза: 2e8642a44d720a5b46f6ea4040104f8f9daedaa0

Еще никто не оставлял запись к записи скачать торрент Secret desires of Triss Секретные желания Трисса . Будь первым!

!Обратная связь
Chicago PD S06E07 720p HDTV x264-AVS[ettv] | Ogie Banks | Brand New Nintendo Switch Neon Red/blue Console + 3 Top Games! All New In Box