Скачать порно через торрент Happy Happy School Счастливая Школа Радости UnionPeer.org бесплатно онлайн HD качество

Скачать новое порно 2015, 2014 новинки через торрент UnionPeer.org

Порно торрент бесплатно ЮнионПир.орг

Статистика раздачи
Размер:  2.72 GB   |    Зарегистрирован:  26 дней   |    .torrent скачан:  263 раза   |   
Раздают:  1  
   
загрузка...
 
Автор Сообщение

Galfimbul

avatar Galfimbul


Happy Happy School / Happy Happy School / Счастливая Школа Радости

Год выпуска: 2016
Жанр: MMD, School, Parody, Idol, Striptease, Tiny tits
Серии: ep. 1-3 of 3
Продолжительность: 00:16:18+00:06:55+00:09:44
Цензура: Отсутствует

Язык: Английский
Автор оригинала: Cookie Fun Channel O( '' w '' )y
Описание: Днем они школьницы, а вечером королевы танца

Доп. информация: Порядок просмотра:
1) Happy Happy School
2) Happy Happy School Extended Locker Version
3) Happy Happy School Ecchi Audience Remix
В третьем ролике указывается, что есть еще Happy Happy School Rei Charles Intro, но я не заметил там никаких уникальных кадров. Все материалы из интро есть в самом ролике

Качество видео: WEB-DL
Разрешение видео: 720p
Формат видео: MP4
Видео: MPEG4 Video (H264) 1280x720 59.941fps 10466kbps
Аудио: AAC 48000Hz stereo 130kbps
General
Complete name : Happy Happy School.mp4
Format : MPEG-4
Format profile : Base Media
Codec ID : isom
File size : 1.42 GiB
Duration : 16mn 17s
Overall bit rate : 12.5 Mbps
Writing application : Lavf54.63.104

Video
ID : 1
Format : AVC
Format/Info : Advanced Video Codec
Format profile : High@L3.2
Format settings, CABAC : Yes
Format settings, ReFrames : 4 frames
Codec ID : avc1
Codec ID/Info : Advanced Video Coding
Duration : 16mn 17s
Bit rate : 12.3 Mbps
Width : 1 280 pixels
Height : 720 pixels
Display aspect ratio : 16:9
Frame rate mode : Variable
Frame rate : 59.940 fps
Minimum frame rate : 29.971 fps
Maximum frame rate : 59.941 fps
Color space : YUV
Chroma subsampling : 4:2:0
Bit depth : 8 bits
Scan type : Progressive
Bits/(Pixel*Frame) : 0.224
Stream size : 1.41 GiB (99%)
Writing library : x264 core 123 r2189 35cf912
Encoding settings : cabac=1 / ref=3 / deblock=1:0:0 / analyse=0x3:0x133 / me=hex / subme=7 / psy=1 / psy_rd=1.00:0.00 / mixed_ref=1 / me_range=16 / chroma_me=1 / trellis=1 / 8x8dct=1 / cqm=0 / deadzone=21,11 / fast_pskip=1 / chroma_qp_offset=-2 / threads=6 / sliced_threads=0 / nr=0 / decimate=1 / interlaced=0 / bluray_compat=0 / constrained_intra=0 / bframes=3 / b_pyramid=2 / b_adapt=1 / b_bias=0 / direct=1 / weightb=1 / open_gop=0 / weightp=2 / keyint=250 / keyint_min=25 / scenecut=40 / intra_refresh=0 / rc_lookahead=40 / rc=crf / mbtree=1 / crf=20.0 / qcomp=0.60 / qpmin=10 / qpmax=51 / qpstep=4 / ip_ratio=1.40 / aq=1:1.00

Audio
ID : 2
Format : AAC
Format/Info : Advanced Audio Codec
Format profile : LC
Codec ID : 40
Duration : 16mn 17s
Bit rate mode : Constant
Bit rate : 132 Kbps
Channel count : 2 channels
Channel positions : Front: L R
Sampling rate : 48.0 KHz
Compression mode : Lossy
Stream size : 15.2 MiB (1%)
Language : unk
General
Complete name : Happy Happy School Extended Locker Version.mp4
Format : MPEG-4
Format profile : Base Media
Codec ID : isom
File size : 525 MiB
Duration : 6mn 55s
Overall bit rate : 10.6 Mbps
Writing application : Lavf54.63.104

Video
ID : 1
Format : AVC
Format/Info : Advanced Video Codec
Format profile : High@L3.2
Format settings, CABAC : Yes
Format settings, ReFrames : 4 frames
Codec ID : avc1
Codec ID/Info : Advanced Video Coding
Duration : 6mn 55s
Bit rate : 10.5 Mbps
Width : 1 280 pixels
Height : 720 pixels
Display aspect ratio : 16:9
Frame rate mode : Constant
Frame rate : 59.940 fps
Color space : YUV
Chroma subsampling : 4:2:0
Bit depth : 8 bits
Scan type : Progressive
Bits/(Pixel*Frame) : 0.189
Stream size : 518 MiB (99%)
Writing library : x264 core 123 r2189 35cf912
Encoding settings : cabac=1 / ref=3 / deblock=1:0:0 / analyse=0x3:0x133 / me=hex / subme=7 / psy=1 / psy_rd=1.00:0.00 / mixed_ref=1 / me_range=16 / chroma_me=1 / trellis=1 / 8x8dct=1 / cqm=0 / deadzone=21,11 / fast_pskip=1 / chroma_qp_offset=-2 / threads=6 / sliced_threads=0 / nr=0 / decimate=1 / interlaced=0 / bluray_compat=0 / constrained_intra=0 / bframes=3 / b_pyramid=2 / b_adapt=1 / b_bias=0 / direct=1 / weightb=1 / open_gop=0 / weightp=2 / keyint=250 / keyint_min=25 / scenecut=40 / intra_refresh=0 / rc_lookahead=40 / rc=crf / mbtree=1 / crf=20.0 / qcomp=0.60 / qpmin=10 / qpmax=51 / qpstep=4 / ip_ratio=1.40 / aq=1:1.00

Audio
ID : 2
Format : AAC
Format/Info : Advanced Audio Codec
Format profile : LC
Codec ID : 40
Duration : 6mn 55s
Bit rate mode : Constant
Bit rate : 132 Kbps
Channel count : 2 channels
Channel positions : Front: L R
Sampling rate : 48.0 KHz
Compression mode : Lossy
Stream size : 6.47 MiB (1%)
Language : unk
General
Complete name : Happy Happy School Ecchi Audience Remix.mp4
Format : MPEG-4
Format profile : Base Media
Codec ID : isom
File size : 804 MiB
Duration : 9mn 44s
Overall bit rate : 11.5 Mbps
Writing application : Lavf54.63.104

Video
ID : 1
Format : AVC
Format/Info : Advanced Video Codec
Format profile : High@L3.2
Format settings, CABAC : Yes
Format settings, ReFrames : 4 frames
Codec ID : avc1
Codec ID/Info : Advanced Video Coding
Duration : 9mn 44s
Bit rate : 11.4 Mbps
Width : 1 280 pixels
Height : 720 pixels
Display aspect ratio : 16:9
Frame rate mode : Variable
Frame rate : 59.940 fps
Minimum frame rate : 29.971 fps
Maximum frame rate : 59.941 fps
Color space : YUV
Chroma subsampling : 4:2:0
Bit depth : 8 bits
Scan type : Progressive
Bits/(Pixel*Frame) : 0.206
Stream size : 794 MiB (99%)
Writing library : x264 core 123 r2189 35cf912
Encoding settings : cabac=1 / ref=3 / deblock=1:0:0 / analyse=0x3:0x133 / me=hex / subme=7 / psy=1 / psy_rd=1.00:0.00 / mixed_ref=1 / me_range=16 / chroma_me=1 / trellis=1 / 8x8dct=1 / cqm=0 / deadzone=21,11 / fast_pskip=1 / chroma_qp_offset=-2 / threads=6 / sliced_threads=0 / nr=0 / decimate=1 / interlaced=0 / bluray_compat=0 / constrained_intra=0 / bframes=3 / b_pyramid=2 / b_adapt=1 / b_bias=0 / direct=1 / weightb=1 / open_gop=0 / weightp=2 / keyint=250 / keyint_min=25 / scenecut=40 / intra_refresh=0 / rc_lookahead=40 / rc=crf / mbtree=1 / crf=20.0 / qcomp=0.60 / qpmin=10 / qpmax=51 / qpstep=4 / ip_ratio=1.40 / aq=1:1.00

Audio
ID : 2
Format : AAC
Format/Info : Advanced Audio Codec
Format profile : LC
Codec ID : 40
Duration : 9mn 44s
Bit rate mode : Constant
Bit rate : 132 Kbps
Channel count : 2 channels
Channel positions : Front: L R
Sampling rate : 48.0 KHz
Compression mode : Lossy
Stream size : 9.19 MiB (1%)
Language : unk


Трекер:  [ 23-Окт-2018 00:03 ]

  

Скачать .torrent

Размер .torrent файла 14 KB


Размер: 2.72 GB
Хэш (hash) релиза: ac7d6d401ccd006fec73bae4a03dada6f76776d8

Еще никто не оставлял запись к записи скачать торрент Happy Happy School Счастливая Школа Радости . Будь первым!

!Обратная связь
Keen Eddie | Przygodowe | Crossbones