Скачать порно через торрент [MMD] Naughty Dream Влажные девичьи сны UnionPeer.org бесплатно онлайн HD качество

Скачать новое порно 2015, 2014 новинки через торрент UnionPeer.org

Порно торрент бесплатно ЮнионПир.орг

Статистика раздачи
Размер:  556 MB   |    Зарегистрирован:  22 дня   |    .torrent скачан:  323 раза   |   
Раздают:  1  
   
загрузка...
 
Автор Сообщение

Galfimbul

avatar Galfimbul


[MMD] Naughty Dream / [MMD] Naughty Dream / Влажные девичьи сны

Жанр: MMD, Big Tits, Yuri / Lesbians
Серии: ep. 1-2
Продолжительность: 00:17:05+00:16:27
Цензура: Отсутствует

Автор оригинала: DENG
Описание: Влажные девичьи сны (фантазии)

Доп. информация: MikuMikuDance, сокращенно MMD — бесплатная программа компьютерной анимации, которая позволяет пользователям создавать 3D-анимированные видеоролики, изначально созданная для персонажа Vocaloid Мику Хацунэ.

Этот релиз является попыткой привлечь внимание посетителей и релизеров раздела Hentai: 3D video к жанру MMD. Сейчас когда новый 3D Хентай появляется на трекере довольно редко самое время обратить внимание на достойные MMD ролики. Почему бы не собрать на Порнолабе коллекцию лучших MMD в раздачах объединенных одним автором или темой. Много достойных работ появляется каждый день см например iwara ТВ. Надеюсь на появление новых релизов от вас!

Качество видео: WEB-DL
Разрешение видео: 720p
Формат видео: ASF
Видео: MPEG4 Video (H264) 1280x720 60fps 2107kbps
Аудио: AAC 48000Hz stereo 127kbps
General
Complete name : [MMD] Naughty Dream (YURI) [60FPS-UNCEN].mp4
Format : MPEG-4
Format profile : Base Media / Version 2
Codec ID : mp42
File size : 291 MiB
Duration : 17mn 4s
Overall bit rate mode : Variable
Overall bit rate : 2 386 Kbps
Encoded date : UTC 2016-07-18 04:04:41
Tagged date : UTC 2016-07-18 04:04:41
Writing application : HandBrake 0.10.5 2016021100

Video
ID : 1
Format : AVC
Format/Info : Advanced Video Codec
Format profile : Main@L4.0
Format settings, CABAC : Yes
Format settings, ReFrames : 4 frames
Codec ID : avc1
Codec ID/Info : Advanced Video Coding
Duration : 17mn 4s
Bit rate : 2 247 Kbps
Width : 1 280 pixels
Height : 720 pixels
Display aspect ratio : 16:9
Frame rate mode : Constant
Frame rate : 60.000 fps
Color space : YUV
Chroma subsampling : 4:2:0
Bit depth : 8 bits
Scan type : Progressive
Bits/(Pixel*Frame) : 0.041
Stream size : 274 MiB (94%)
Writing library : x264 core 142 r2479 dd79a61
Encoding settings : cabac=1 / ref=1 / deblock=1:0:0 / analyse=0x1:0x111 / me=hex / subme=2 / psy=1 / psy_rd=1.00:0.00 / mixed_ref=0 / me_range=16 / chroma_me=1 / trellis=0 / 8x8dct=0 / cqm=0 / deadzone=21,11 / fast_pskip=1 / chroma_qp_offset=0 / threads=3 / lookahead_threads=1 / sliced_threads=0 / nr=0 / decimate=1 / interlaced=0 / bluray_compat=0 / constrained_intra=0 / bframes=3 / b_pyramid=2 / b_adapt=1 / b_bias=0 / direct=1 / weightb=1 / open_gop=0 / weightp=1 / keyint=600 / keyint_min=60 / scenecut=40 / intra_refresh=0 / rc_lookahead=10 / rc=crf / mbtree=1 / crf=17.0 / qcomp=0.60 / qpmin=0 / qpmax=69 / qpstep=4 / vbv_maxrate=20000 / vbv_bufsize=25000 / crf_max=0.0 / nal_hrd=none / filler=0 / ip_ratio=1.40 / aq=1:1.00
Encoded date : UTC 2016-07-18 04:04:41
Tagged date : UTC 2016-07-18 04:04:41
Color primaries : BT.709
Transfer characteristics : BT.709
Matrix coefficients : BT.709

Audio
ID : 2
Format : AAC
Format/Info : Advanced Audio Codec
Format profile : LC
Codec ID : 40
Duration : 17mn 4s
Bit rate mode : Variable
Bit rate : 128 Kbps
Channel count : 2 channels
Channel positions : Front: L R
Sampling rate : 48.0 KHz
Compression mode : Lossy
Stream size : 15.6 MiB (5%)
Title : Stereo
Language : English
Encoded date : UTC 2016-07-18 04:04:41
Tagged date : UTC 2016-07-18 04:04:41
General
Complete name : [MMD R18] Naughty Dream Part.2 (YURI).mp4
Format : MPEG-4
Format profile : Base Media / Version 2
Codec ID : mp42
File size : 264 MiB
Duration : 16mn 26s
Overall bit rate mode : Variable
Overall bit rate : 2 246 Kbps
Encoded date : UTC 2016-08-18 10:27:40
Tagged date : UTC 2016-08-18 10:27:40
Writing application : HandBrake 0.10.5 2016021100

Video
ID : 1
Format : AVC
Format/Info : Advanced Video Codec
Format profile : Main@L4.0
Format settings, CABAC : Yes
Format settings, ReFrames : 4 frames
Codec ID : avc1
Codec ID/Info : Advanced Video Coding
Duration : 16mn 26s
Bit rate : 2 108 Kbps
Width : 1 280 pixels
Height : 720 pixels
Display aspect ratio : 16:9
Frame rate mode : Constant
Frame rate : 60.000 fps
Color space : YUV
Chroma subsampling : 4:2:0
Bit depth : 8 bits
Scan type : Progressive
Bits/(Pixel*Frame) : 0.038
Stream size : 248 MiB (94%)
Writing library : x264 core 142 r2479 dd79a61
Encoding settings : cabac=1 / ref=1 / deblock=1:0:0 / analyse=0x1:0x111 / me=hex / subme=2 / psy=1 / psy_rd=1.00:0.00 / mixed_ref=0 / me_range=16 / chroma_me=1 / trellis=0 / 8x8dct=0 / cqm=0 / deadzone=21,11 / fast_pskip=1 / chroma_qp_offset=0 / threads=3 / lookahead_threads=1 / sliced_threads=0 / nr=0 / decimate=1 / interlaced=0 / bluray_compat=0 / constrained_intra=0 / bframes=3 / b_pyramid=2 / b_adapt=1 / b_bias=0 / direct=1 / weightb=1 / open_gop=0 / weightp=1 / keyint=600 / keyint_min=60 / scenecut=40 / intra_refresh=0 / rc_lookahead=10 / rc=crf / mbtree=1 / crf=17.0 / qcomp=0.60 / qpmin=0 / qpmax=69 / qpstep=4 / vbv_maxrate=20000 / vbv_bufsize=25000 / crf_max=0.0 / nal_hrd=none / filler=0 / ip_ratio=1.40 / aq=1:1.00
Encoded date : UTC 2016-08-18 10:27:40
Tagged date : UTC 2016-08-18 10:27:40
Color primaries : BT.709
Transfer characteristics : BT.709
Matrix coefficients : BT.709

Audio
ID : 2
Format : AAC
Format/Info : Advanced Audio Codec
Format profile : LC
Codec ID : 40
Duration : 16mn 26s
Bit rate mode : Variable
Bit rate : 128 Kbps
Channel count : 2 channels
Channel positions : Front: L R
Sampling rate : 48.0 KHz
Compression mode : Lossy
Stream size : 15.0 MiB (6%)
Title : Stereo
Language : English
Encoded date : UTC 2016-08-18 10:27:40
Tagged date : UTC 2016-08-18 10:27:40


Трекер:  [ 27-Окт-2018 00:03 ]

  

Скачать .torrent

Размер .torrent файла 11 KB


Размер: 556 MB
Хэш (hash) релиза: d92639f732a5588825b9f8f9d7283e6078dcfc9d

Еще никто не оставлял запись к записи скачать торрент [MMD] Naughty Dream Влажные девичьи сны . Будь первым!

!Обратная связь
IOS Control Center APK Free | Adventure | Rebecka Martinsson (3)