Скачать порно через торрент [MMD] Time Stop Mini Pack Остановка времени Мини Пак UnionPeer.org бесплатно онлайн HD качество

Скачать новое порно 2015, 2014 новинки через торрент UnionPeer.org

Порно торрент бесплатно ЮнионПир.орг

Статистика раздачи
Размер:  1.78 GB   |    Зарегистрирован:  22 дня   |    .torrent скачан:  195 раз   |   
Раздают:  1  
   
загрузка...
 
Автор Сообщение

Galfimbul

avatar Galfimbul


[MMD] Time Stop Mini Pack / [MMD] Time Stop Mini Pack / Остановка времени Мини Пак

Жанр: MMD, Vaginal, Oral, Creampie, Toy
Продолжительность: 00:30:00
Цензура: Есть во всех файлах

Язык: Японский
Субтитры: Встроенные неотключаемые (хардсаб)

Описание: Начинать просмотр рекомендую с ролика [MMD] Raspberry Monster (time stop)

MikuMikuDance, сокращенно MMD — бесплатная программа компьютерной анимации, которая позволяет пользователям создавать 3D-анимированные видеоролики, изначально созданная для персонажа Vocaloid Мику Хацунэ.

Этот релиз является второй попыткой привлечь внимание посетителей и релизеров раздела Hentai: 3D video к жанру MMD. Сейчас когда новый 3D Хентай появляется на трекере довольно редко самое время обратить внимание на достойные MMD ролики. Почему бы не собрать на Порнолабе коллекцию лучших MMD в раздачах объединенных одним автором или темой. Много достойных работ появляется каждый день см например iwara ТВ. Надеюсь на появление новых релизов от вас!

Первая попытка:
http://.../forum/viewtopic.php?t=2472889
http://.../forum/viewtopic.php?t=2473724

Качество видео: WEB-DL
Разрешение видео: 720p
Формат видео: MP4
Видео: От MPEG4 Video (H264) 1280x720 29.97fps 1492kbps до MPEG4 Video (H264) 1920x1080 60fps 15300kbps
Аудио: AAC 48000Hz stereo 192kbps
General
Complete name : [MMD] Raspberry Monster (time stop).mp4
Format : MPEG-4
Format profile : Base Media / Version 2
Codec ID : mp42
File size : 852 MiB
Duration : 7mn 52s
Overall bit rate mode : Variable
Overall bit rate : 15.1 Mbps
Encoded date : UTC 2017-07-12 01:10:40
Tagged date : UTC 2017-07-12 01:10:40

Video
ID : 2
Format : AVC
Format/Info : Advanced Video Codec
Format profile : High@L4.2
Format settings, CABAC : Yes
Format settings, ReFrames : 3 frames
Codec ID : avc1
Codec ID/Info : Advanced Video Coding
Duration : 7mn 52s
Bit rate mode : Variable
Bit rate : 14.9 Mbps
Maximum bit rate : 24.0 Mbps
Width : 1 920 pixels
Height : 1 080 pixels
Display aspect ratio : 16:9
Frame rate mode : Constant
Frame rate : 60.000 fps
Standard : NTSC
Color space : YUV
Chroma subsampling : 4:2:0
Bit depth : 8 bits
Scan type : Progressive
Bits/(Pixel*Frame) : 0.120
Stream size : 841 MiB (99%)
Language : English
Encoded date : UTC 2017-07-12 01:10:40
Tagged date : UTC 2017-07-12 01:10:40
Color primaries : BT.709
Transfer characteristics : BT.709
Matrix coefficients : BT.709

Audio
ID : 1
Format : AAC
Format/Info : Advanced Audio Codec
Format profile : LC
Codec ID : 40
Duration : 7mn 52s
Bit rate mode : Constant
Bit rate : 192 Kbps
Channel count : channel0
Original Channel count : 2 channels
Channel positions : Front: L R
Sampling rate : 48.0 KHz
Compression mode : Lossy
Stream size : 10.8 MiB (1%)
Language : English
Encoded date : UTC 2017-07-12 01:10:40
Tagged date : UTC 2017-07-12 01:10:40
General
Complete name : 【MMD】Sweet Devil.mp4
Format : MPEG-4
Format profile : Base Media
Codec ID : isom
File size : 90.2 MiB
Duration : 8mn 5s
Overall bit rate mode : Variable
Overall bit rate : 1 559 Kbps
Encoded date : UTC 2016-05-10 04:00:47
Tagged date : UTC 2016-05-10 04:00:47

Video
ID : 1
Format : AVC
Format/Info : Advanced Video Codec
Format profile : High@L3.1
Format settings, CABAC : Yes
Format settings, ReFrames : 5 frames
Codec ID : avc1
Codec ID/Info : Advanced Video Coding
Duration : 8mn 5s
Bit rate : 1 492 Kbps
Maximum bit rate : 8 314 Kbps
Width : 1 280 pixels
Height : 720 pixels
Display aspect ratio : 16:9
Frame rate mode : Constant
Frame rate : 29.970 fps
Color space : YUV
Chroma subsampling : 4:2:0
Bit depth : 8 bits
Scan type : Progressive
Bits/(Pixel*Frame) : 0.054
Stream size : 86.4 MiB (96%)
Writing library : x264 core 94 r1583 7608d73
Encoding settings : cabac=1 / ref=5 / deblock=1:0:0 / analyse=0x3:0x113 / me=esa / subme=9 / psy=1 / psy_rd=0.20:0.00 / mixed_ref=1 / me_range=16 / chroma_me=1 / trellis=2 / 8x8dct=1 / cqm=0 / deadzone=21,11 / fast_pskip=0 / chroma_qp_offset=-1 / threads=3 / sliced_threads=0 / nr=0 / decimate=0 / interlaced=0 / constrained_intra=0 / bframes=5 / b_pyramid=2 / b_adapt=2 / b_bias=0 / direct=3 / weightb=1 / weightp=0 / keyint=300 / keyint_min=1 / scenecut=50 / intra_refresh=0 / rc_lookahead=50 / rc=2pass / mbtree=1 / bitrate=1492 / ratetol=1.0 / qcomp=0.80 / qpmin=10 / qpmax=51 / qpstep=4 / cplxblur=20.0 / qblur=0.5 / ip_ratio=1.40 / aq=2:0.80
Encoded date : UTC 2016-05-10 04:00:47
Tagged date : UTC 2016-05-10 04:00:48
Matrix coefficients : BT.601

Audio
ID : 2
Format : AAC
Format/Info : Advanced Audio Codec
Format profile : HE-AAC / LC
Codec ID : 40
Duration : 8mn 5s
Bit rate mode : Variable
Bit rate : 63.0 Kbps
Maximum bit rate : 155 Kbps
Channel count : 2 channels
Channel positions : Front: L R
Sampling rate : 48.0 KHz / 24.0 KHz
Compression mode : Lossy
Stream size : 3.64 MiB (4%)
Encoded date : UTC 2016-05-10 04:00:48
Tagged date : UTC 2016-05-10 04:00:48
General
Complete name : 【R-18】futanari shimakaze&futanari mamiya『Lamb.』.mp4
Format : MPEG-4
Codec ID : M4V
File size : 162 MiB
Duration : 8mn 4s
Overall bit rate mode : Variable
Overall bit rate : 2 802 Kbps
Encoded date : UTC 2016-08-28 17:32:49
Tagged date : UTC 2016-08-28 17:32:49
Writing application : L-SMASH

Video
ID : 1
Format : AVC
Format/Info : Advanced Video Codec
Format profile : High@L3.1
Format settings, CABAC : Yes
Format settings, ReFrames : 4 frames
Codec ID : avc1
Codec ID/Info : Advanced Video Coding
Duration : 8mn 4s
Bit rate : 2 720 Kbps
Maximum bit rate : 5 979 Kbps
Width : 1 280 pixels
Height : 720 pixels
Display aspect ratio : 16:9
Frame rate mode : Constant
Frame rate : 30.000 fps
Color space : YUV
Chroma subsampling : 4:2:0
Bit depth : 8 bits
Scan type : Progressive
Bits/(Pixel*Frame) : 0.098
Stream size : 157 MiB (97%)
Writing library : x264 core 146 r2538kMod 121396c
Encoding settings : cabac=1 / ref=3 / deblock=1:0:0 / analyse=0x3:0x113 / me=hex / subme=7 / psy=1 / fade_compensate=0.00 / psy_rd=1.00:0.00 / mixed_ref=1 / me_range=16 / chroma_me=1 / trellis=1 / 8x8dct=1 / cqm=0 / deadzone=21,11 / fast_pskip=1 / chroma_qp_offset=-2 / threads=6 / lookahead_threads=1 / sliced_threads=0 / nr=0 / decimate=1 / interlaced=0 / bluray_compat=0 / constrained_intra=0 / fgo=0 / bframes=3 / b_pyramid=2 / b_adapt=1 / b_bias=0 / direct=1 / weightb=1 / open_gop=0 / weightp=2 / keyint=250 / keyint_min=25 / scenecut=40 / intra_refresh=0 / rc_lookahead=40 / rc=crf / mbtree=1 / crf=23.0000 / qcomp=0.60 / qpmin=0 / qpmax=69 / qpstep=4 / ip_ratio=1.40 / aq=1:1.00
Encoded date : UTC 2016-08-28 17:32:49
Tagged date : UTC 2016-08-28 17:32:49

Audio
ID : 2
Format : AAC
Format/Info : Advanced Audio Codec
Format profile : LC
Codec ID : 40
Duration : 8mn 4s
Bit rate mode : Variable
Bit rate : 78.6 Kbps
Channel count : 2 channels
Channel positions : Front: L R
Sampling rate : 44.1 KHz
Compression mode : Lossy
Stream size : 4.54 MiB (3%)
Encoded date : UTC 2016-08-28 17:32:49
Tagged date : UTC 2016-08-28 17:32:49
General
Complete name : Time stop HQ 60FPS.mp4
Format : MPEG-4
Format profile : Base Media / Version 2
Codec ID : mp42
File size : 713 MiB
Duration : 6mn 26s
Overall bit rate mode : Variable
Overall bit rate : 15.5 Mbps
Encoded date : UTC 2016-12-19 11:18:08
Tagged date : UTC 2016-12-19 11:18:08

Video
ID : 2
Format : AVC
Format/Info : Advanced Video Codec
Format profile : High@L4.2
Format settings, CABAC : Yes
Format settings, ReFrames : 3 frames
Codec ID : avc1
Codec ID/Info : Advanced Video Coding
Duration : 6mn 26s
Bit rate mode : Variable
Bit rate : 15.3 Mbps
Maximum bit rate : 24.0 Mbps
Width : 1 920 pixels
Height : 1 080 pixels
Display aspect ratio : 16:9
Frame rate mode : Constant
Frame rate : 60.000 fps
Standard : NTSC
Color space : YUV
Chroma subsampling : 4:2:0
Bit depth : 8 bits
Scan type : Progressive
Bits/(Pixel*Frame) : 0.123
Stream size : 704 MiB (99%)
Language : English
Encoded date : UTC 2016-12-19 11:18:08
Tagged date : UTC 2016-12-19 11:18:08
Color primaries : BT.709
Transfer characteristics : BT.709
Matrix coefficients : BT.709

Audio
ID : 1
Format : AAC
Format/Info : Advanced Audio Codec
Format profile : LC
Codec ID : 40
Duration : 6mn 26s
Bit rate mode : Constant
Bit rate : 192 Kbps
Channel count : channel0
Original Channel count : 2 channels
Channel positions : Front: L R
Sampling rate : 48.0 KHz
Compression mode : Lossy
Stream size : 8.84 MiB (1%)
Language : English
Encoded date : UTC 2016-12-19 11:18:08
Tagged date : UTC 2016-12-19 11:18:08


Трекер:  [ 27-Окт-2018 00:03 ]

  

Скачать .torrent

Размер .torrent файла 18 KB


Размер: 1.78 GB
Хэш (hash) релиза: f82d60cd4dd25907f37a27df110a84db2784792c

Еще никто не оставлял запись к записи скачать торрент [MMD] Time Stop Mini Pack Остановка времени Мини Пак . Будь первым!

!Обратная связь
Show/hide the entire archive | Nhạc rap, hiphop | Season 3 Episode 18 Reunion (Part 2)