Скачать через торрент Ночь идёт за нами The Night Comes for Us Фильм бесплатно в хорошем качестве torrent

Скачивайте на UnionPeer.org фильмы через торрент без регистрации. Новинки кино в хорошем качестве через торрент. На UnionPeer.org можно скачать через торрент фильмы 2014 и 2015 годов. Самые новые фильмы.

Скачать торрент Ночь идёт за нами The Night Comes for Us бесплатно через .torrent фильм мультфильм сериал

Статистика раздачи
Размер:  746 MB   |    Зарегистрирован:  8 дней   |    .torrent скачан:  57 раз   |   
Раздают:  1  
   
загрузка...
 
Автор Сообщение

Galfimbul

avatar Galfimbul


Название: Ночь идёт за нами
Оригинальное название: The Night Comes for Us
Год выхода: 2018
Жанр: Боевик, триллер, криминал
Режиссер: Тимо Тьяджанто / Timo Tjahjanto
В ролях: Ико Уайс, Джо Таслим, Джулия Эстелл, Санни Пан, Зак Ли, Шарифа Дааниш, Ханна аль Рашид, Диан Састровардойо, Эпи Куснандар, Салвита Декорте...

О фильме :
В центре развития событий находится профессиональный киллер, который вот уже на протяжении нескольких лет работает на печально известные триады. Он убивает людей по заказу своих криминальных боссов, и его последнее задание неожиданно оборачивается провалом. Главный герой не убивает одну из свидетельниц. Он спасает жизнь девочки, которая становится для него единственной возможностью выбраться из ловушки, в которую он угодил. После этого боссы триад решают убрать главного героя. Он становится для них главной мишенью, а это означает, что совсем скоро ему придётся отбиваться от десятков хорошо обученных киллеров, готовых хладнокровно расправиться с ним…



Страна: Индонезия, Screenplay Infinite Films
Продолжительность: 02:00:47
Перевод: Любительский одноголосый закадровый [Cmert]

Файл
Формат: MKV
Качество: WEB-DLRip-AVC
Видео: MPEG-4 AVC, 768x320, - 787 Кбит/с
Аудио: AAC-HE, 2 ch, - 76 Кбит/с
Субтитры: Русские, английские
Общее
Уникальный идентификатор : 196201984591094756038629094617495773355 (0x939B20B2BB257517BF1B5495B54A20AB)
Полное имя : D:MOVIESThe.Night.Comes.For.Us.2018.ExKinoRay.mkv
Формат : Matroska
Версия формата : Version 4 / Version 2
Размер файла : 746 Мбайт
Продолжительность : 2 ч. 0 м.
Общий поток : 864 Кбит/сек
Дата кодирования : UTC 2018-11-09 03:52:58
Программа кодирования : mkvmerge v15.0.0 ('Duel with the Devil') 64-bit
Библиотека кодирования : libebml v1.3.5 + libmatroska v1.4.5

Видео
Идентификатор : 1
Формат : AVC
Формат/Информация : Advanced Video Codec
Профиль формата : High@L4.1
Параметр CABAC формата : Да
Параметр RefFrames формата : 12 кадров
Идентификатор кодека : V_MPEG4/ISO/AVC
Продолжительность : 2 ч. 0 м.
Битрейт : 787 Кбит/сек
Ширина : 768 пикселей
Высота : 320 пикселей
Соотношение сторон : 2,40:1
Режим частоты кадров : Постоянный
Частота кадров : 23,976 (24000/1001) кадра/сек
Цветовое пространство : YUV
Субдискретизация насыщенности : 4:2:0
Битовая глубина : 8 бит
Тип развёртки : Прогрессивная
Бит/(Пиксели*Кадры) : 0.134
Размер потока : 679 Мбайт (91%)
Библиотека кодирования : x264 core 152 r2851 ba24899
Настройки программы : cabac=1 / ref=12 / deblock=1:-3:-3 / analyse=0x3:0x133 / me=umh / subme=10 / psy=1 / psy_rd=1.00:0.14 / mixed_ref=1 / me_range=32 / chroma_me=1 / trellis=2 / 8x8dct=1 / cqm=0 / deadzone=21,11 / fast_pskip=0 / chroma_qp_offset=-3 / threads=6 / lookahead_threads=1 / sliced_threads=0 / nr=0 / decimate=0 / interlaced=0 / bluray_compat=0 / constrained_intra=0 / bframes=11 / b_pyramid=2 / b_adapt=2 / b_bias=0 / direct=3 / weightb=1 / open_gop=0 / weightp=2 / keyint=240 / keyint_min=23 / scenecut=40 / intra_refresh=0 / rc=2pass / mbtree=0 / bitrate=787 / ratetol=1.0 / qcomp=0.60 / qpmin=0 / qpmax=69 / qpstep=4 / cplxblur=20.0 / qblur=0.5 / ip_ratio=1.40 / pb_ratio=1.30 / aq=1:1.00
Default : Да
Forced : Нет

Аудио
Идентификатор : 2
Формат : AAC
Формат/Информация : Advanced Audio Codec
Профиль формата : HE-AAC / LC
Идентификатор кодека : A_AAC
Продолжительность : 2 ч. 0 м.
Битрейт : 76,0 Кбит/сек
Каналы : 2 канала
Расположение каналов : Front: L R
Частота : 48,0 КГц / 24,0 КГц
Частота кадров : 23,438 кадра/сек (1024 SPF)
Метод сжатия : С потерями
Задержка видео : 31 мс.
Размер потока : 65,7 Мбайт (9%)
Default : Да
Forced : Нет

Текст #1
Идентификатор : 3
Формат : UTF-8
Идентификатор кодека : S_TEXT/UTF8
Идентификатор кодека/Информация : UTF-8 Plain Text
Продолжительность : 2 ч. 0 м.
Битрейт : 29 бит/сек
ElementCount : 541
Размер потока : 25,9 Кбайт (0%)
Заголовок : Russian
Default : Нет
Forced : Нет

Текст #2
Идентификатор : 4
Формат : UTF-8
Идентификатор кодека : S_TEXT/UTF8
Идентификатор кодека/Информация : UTF-8 Plain Text
Продолжительность : 1 ч. 48 м.
Битрейт : 16 бит/сек
ElementCount : 448
Размер потока : 12,9 Кбайт (0%)
Заголовок : English
Язык : English
Default : Нет
Forced : Нет
Источник http://BlaTor.org

Трекер:  [ 09-Ноя-2018 14:20 ]

  

Скачать .torrent

Размер .torrent файла 15 KB


Размер: 746 MB
Хэш (hash) релиза: 36c672ccf223410bbabc9119bea2fbc601175254
Подписка на обновления:

Торренты, похожие на Ночь идёт за нами The Night Comes for Us скачать торрент

Форум Название Автор Размер S L Добавлен
Зарубежные фильмы 2016-2018 (Новинки зарубежного кино) ·%· Ночь идёт за нами / The Night Comes for Us (2018) WEB-DLRip от MegaPeer | L1 Galfimbul 782314858746 MB 0 0 1540815009

15:10

29-Окт-18

Зарубежные фильмы 2016-2018 (Новинки зарубежного кино) ·%· Ночь идёт за нами / The Night Comes for Us (2018) WEBRip | GreenРай Studio Galfimbul 15195382581.42 GB 0 0 1540791714

08:41

29-Окт-18

Еще никто не оставлял запись к записи скачать торрент Ночь идёт за нами The Night Comes for Us . Будь первым!

!Обратная связь
Борис Акунин - Не прощаюсь (2018) FB2 | Asian Dramas | DSR Schumacher DSR114 Pro Series 2200 Amp Jump Starter